Скачать через торрент Крик тишины Фильм бесплатно в хорошем качестве torrent

Скачивайте на UnionPeer.org фильмы через торрент без регистрации. Новинки кино в хорошем качестве через торрент. На UnionPeer.org можно скачать через торрент фильмы 2014 и 2015 годов. Самые новые фильмы.

Скачать торрент Крик тишины бесплатно через .torrent фильм мультфильм сериал

Статистика раздачи
Размер:  4.29 GB   |    Зарегистрирован:  23 дня   |    .torrent скачан:  77 раз   |   
Раздают:  1  
   
загрузка...
 
Автор Сообщение

Galfimbul

avatar Galfimbul


Крик тишины



[b]Год выхода:
2018
Жанр: Драма, история
Режиссер: Владимир Потапов
В ролях: Алина Саргина, Лева Гиршов, Артём Быстров, Светлана Смирнова-Марцинкевич, Владимир Меньшов, Надежда Маркина, Людмила Егорова, Наталия Фиссон, Сергей Паршин, Мария Кононова, Александр Жданов, Дарья Анишина, Владимир Потапов, Николай Клочьев, Александра Никитина (II), Александр Гаврилов (III), Евгений Серзин

О фильме:
Блокадный Ленинград. Февраль 1942 года. Заканчивается самая страшная блокадная зима. Нина Воронова совсем отчаялась. Ее трёхлетний сын Митя ослабел, а карточки на хлеб уже отоварены на два дня вперед. Последняя надежда — эвакуация. Но с маленьким детьми не берут. Тогда женщина идет на чудовищный шаг — эвакуируется, оставив сына одного в промерзшей квартире. Во время налета мальчика спасает девочка-подросток Катя. Девочка выдает Митю за своего брата и обещает себе сделать все, чтобы Митя выжил. Несмотря ни на что…

Страна: Россия
Студия: Мосфильм
Продолжительность: 01:36:45

Качество HDTV 1080p Запись с
Видео: AVC, 1920x1080 (16:9), 25.000 fps, 7 051 Kbps (0.136 bit/pixel)
Аудио: AC3 / 2.0 / 48 kHz / 192 kbps
Перевод: Не требуется
Cубтитры: нет
General
Unique ID : 202552216748886151413004854710726070005 (0x98622350F1DD474C9DBDFD17DF048EF5)
Complete name : E:Запись с твKrik tishiny.2018.HDTV 1080p.by.White Smoke.R.G.Generalfilm.mkv
Format : Matroska
Format version : Version 4 / Version 2
File size : 4.29 GiB
Duration : 1 h 36 min
Overall bit rate mode : Constant
Overall bit rate : 6 350 kb/s
Movie name : Krik tishiny.2018.HDTV 1080p.by.White Smoke.R.G.Generalfilm.mkv
Encoded date : UTC 2019-01-28 16:01:34
Writing application : mkvmerge v6.8.0 ('Theme for Great Cities') 64bit built on Mar 2 2014 21:34:26
Writing library : libebml v1.3.0 + libmatroska v1.4.1

Video
ID : 1
Format : AVC
Format/Info : Advanced Video Codec
Format profile : High@L4.1
Format settings : CABAC / 3 Ref Frames
Format settings, CABAC : Yes
Format settings, ReFrames : 3 frames
Codec ID : V_MPEG4/ISO/AVC
Duration : 1 h 36 min
Bit rate mode : Constant
Bit rate : 6 032 kb/s
Nominal bit rate : 7 051 kb/s
Width : 1 920 pixels
Height : 1 080 pixels
Display aspect ratio : 16:9
Frame rate mode : Constant
Frame rate : 25.000 FPS
Standard : PAL
Color space : YUV
Chroma subsampling : 4:2:0
Bit depth : 8 bits
Scan type : Progressive
Bits/(Pixel*Frame) : 0.116
Stream size : 4.08 GiB (95%)
Default : Yes
Forced : No
Color range : Limited
Color primaries : BT.709
Transfer characteristics : BT.709
Matrix coefficients : BT.709

Audio
ID : 2
Format : AC-3
Format/Info : Audio Coding 3
Commercial name : Dolby Digital
Codec ID : A_AC3
Duration : 1 h 36 min
Bit rate mode : Constant
Bit rate : 192 kb/s
Channel(s) : 2 channels
Channel layout : L R
Sampling rate : 48.0 kHz
Frame rate : 31.250 FPS (1536 SPF)
Bit depth : 16 bits
Compression mode : Lossy
Stream size : 133 MiB (3%)
Service kind : Complete Main
Default : Yes
Forced : No
Источник http://BlaTor.org

Трекер:  [ 28-Янв-2019 21:00 ]

  

Скачать .torrent

Размер .torrent файла 22 KB


Размер: 4.29 GB
Хэш (hash) релиза: dceb25f49a67b639b3e973dae014887f760abdf7
Подписка на обновления:

Торренты, похожие на Крик тишины скачать торрент

Форум Название Автор Размер S L Добавлен
Российские фильмы 2016-2018 (Новинки русского кино) ·%· Крик тишины (2019) HDTVRip от Generalfilm | КПК Galfimbul 385903897368 MB 0 0 1548750612

11:30

29-Янв-19

Российские фильмы 2016-2018 (Новинки русского кино) ·%· Крик тишины (2019) HDTVRip-AVC от Files-x Galfimbul 14679285921.37 GB 0 0 1548676860

15:01

28-Янв-19

Российские фильмы 2016-2018 (Новинки русского кино) ·%· Крик тишины (2019) HDTVRip от Files-x Galfimbul 14741483521.37 GB 0 0 1548670843

13:20

28-Янв-19

Российские фильмы 2016-2018 (Новинки русского кино) ·%· Крик тишины (2019) HDTV 1080i Galfimbul 55561136485.17 GB 0 0 1548663038

11:10

28-Янв-19

Российские фильмы 2016-2018 (Новинки русского кино) ·%· Крик тишины (2019) HDTVRip 720p от ExKinoRay Galfimbul 30433105202.83 GB 0 0 1548643822

05:50

28-Янв-19

Российские фильмы 2016-2018 (Новинки русского кино) ·%· Крик тишины (2019) HDTVRip от GeneralFilm Galfimbul 14524149761.35 GB 0 0 1548641420

05:10

28-Янв-19

Российские фильмы 2016-2018 (Новинки русского кино) ·%· Крик тишины (2019) SATRip Galfimbul 14714265601.37 GB 0 0 1548603020

18:30

27-Янв-19

Зарубежные фильмы до 2016 ·· Крик в тишине (Игорь Парфёнов) [2012, Украина, Социальная драма, SATRip] Galfimbul 23468607542.19 GB 0 0 1411711758

09:09

26-Сен-14

Еще никто не оставлял запись к записи скачать торрент Крик тишины . Будь первым!

!Обратная связь