Скачать через торрент Крик в тишине Фильм бесплатно в хорошем качестве torrent

Скачивайте на UnionPeer.org фильмы через торрент без регистрации. Новинки кино в хорошем качестве через торрент. На UnionPeer.org можно скачать через торрент фильмы 2014 и 2015 годов. Самые новые фильмы.

Скачать торрент Крик в тишине бесплатно через .torrent фильм мультфильм сериал

Статистика раздачи
Размер:  2.19 GB   |    Зарегистрирован:  4 года 4 месяца   |    .torrent скачан:  46 раз   |   
Раздают:  1  
   
загрузка...
 
Автор Сообщение

Galfimbul

avatar Galfimbul


Крик в тишине

Страна: Украина
Жанр: Социальная драма
Год выпуска: 2012
Продолжительность: 01:00:53 + 01:03:23

Перевод: Не требуется
Режиссер: Игорь Парфёнов

В ролях: Владимир Маляр, Степан Пасечник, Эллен Слюсарччи, Сергей Бережко, Александр Тартышников, Александр Соколовский (II), Анна Гуляева (II), Игорь Парфёнов

Описание: По мотивам рассказа Джека Лондона «Френсис Спейт»
Рыболовецкая шхуна, нанятая «новыми русскими», отправилась на браконьерскую охоту на дельфинов, но ряд загадочных событий и диверсий, произошедших на судне, меняет все планы охотников. И вот они уже вместе с командой (всего 12 человек) садятся за стол переговоров, где капитан предлагает единственный выход, чтобы не умереть с голоду и выжить, необходимо кинуть жребий и кого-то съесть…

Доп. информация: Производство: Киностудия "Ступени"

Сэмпл: http://www.sendspace.com/file/pznhvw

Качество видео: SATRip
Формат видео: AVI

Видео:
1 XviD MPEG-4 ,704x400 (1.76:1) , 25 fps , 2369 kbps avg
2 XviD MPEG-4 ,704x400 (1.76:1) , 25 fps , 2266 kbps avg
Аудио: AC3 , 48 kHz , 192.00 kbps avg , 2/0 (L,R) ch
Complete name Крик в тишине 2012\Крик в тишине 1.avi
Format : AVI
Format/Info : Audio Video Interleave
File size : 1.09 GiB
Duration : 1h 0mn
Overall bit rate : 2 571 Kbps
Writing library : VirtualDub build 35491/release

Video
ID : 0
Format : MPEG-4 Visual
Format profile : Advanced Simple@L5
Format settings, BVOP : 2
Format settings, QPel : No
Format settings, GMC : No warppoints
Format settings, Matrix : Default (H.263)
Codec ID : XVID
Codec ID/Hint : XviD
Duration : 1h 0mn
Bit rate : 2 369 Kbps
Width : 704 pixels
Height : 400 pixels
Display aspect ratio : 16:9
Frame rate : 25.000 fps
Color space : YUV
Chroma subsampling : 4:2:0
Bit depth : 8 bits
Scan type : Progressive
Compression mode : Lossy
Bits/(Pixel*Frame) : 0.337
Stream size : 1.01 GiB (92%)
Writing library : XviD 1.2.1 (UTC 2008-12-04)

Audio
ID : 1
Format : AC-3
Format/Info : Audio Coding 3
Mode extension : CM (complete main)
Format settings, Endianness : Big
Codec ID : 2000
Duration : 1h 0mn
Bit rate mode : Constant
Bit rate : 192 Kbps
Channel(s) : 2 channels
Channel positions : Front: L R
Sampling rate : 48.0 KHz
Bit depth : 16 bits
Compression mode : Lossy
Stream size : 83.6 MiB (7%)
Alignment : Aligned on interleaves
Interleave, duration : 40 ms (1.00 video frame)
Interleave, preload duration : 512 ms

Complete name Крик в тишине 2012\Крик в тишине 2.avi
Format : AVI
Format/Info : Audio Video Interleave
File size : 1.09 GiB
Duration : 1h 3mn
Overall bit rate : 2 467 Kbps
Writing library : VirtualDub build 35491/release

Video
ID : 0
Format : MPEG-4 Visual
Format profile : Advanced Simple@L5
Format settings, BVOP : 2
Format settings, QPel : No
Format settings, GMC : No warppoints
Format settings, Matrix : Default (H.263)
Codec ID : XVID
Codec ID/Hint : XviD
Duration : 1h 3mn
Bit rate : 2 266 Kbps
Width : 704 pixels
Height : 400 pixels
Display aspect ratio : 16:9
Frame rate : 25.000 fps
Color space : YUV
Chroma subsampling : 4:2:0
Bit depth : 8 bits
Scan type : Progressive
Compression mode : Lossy
Bits/(Pixel*Frame) : 0.322
Stream size : 1.00 GiB (92%)
Writing library : XviD 1.2.1 (UTC 2008-12-04)

Audio
ID : 1
Format : AC-3
Format/Info : Audio Coding 3
Mode extension : CM (complete main)
Format settings, Endianness : Big
Codec ID : 2000
Duration : 1h 3mn
Bit rate mode : Constant
Bit rate : 192 Kbps
Channel(s) : 2 channels
Channel positions : Front: L R
Sampling rate : 48.0 KHz
Bit depth : 16 bits
Compression mode : Lossy
Stream size : 87.0 MiB (8%)
Alignment : Aligned on interleaves
Interleave, duration : 40 ms (1.00 video frame)
Interleave, preload duration : 512 ms


Трекер:  [ 26-Сен-2014 09:00 ]

  

Скачать .torrent

Размер .torrent файла 11 KB


Размер: 2.19 GB
Хэш (hash) релиза: e0648d50cad4b83953fb60fbcc5bdd9f7653ea08
Подписка на обновления:

Еще никто не оставлял запись к записи скачать торрент Крик в тишине . Будь первым!

!Обратная связь